<?xml version="1.0" standalone="no"?>
<!DOCTYPE svg PUBLIC "-//W3C//DTD SVG 1.1//EN" "http://www.w3.org/Graphics/SVG/1.1/DTD/svg11.dtd" >
<svg xmlns="http://www.w3.org/2000/svg">
<metadata>
Created by FontForge 20120731 at Fri Sep 11 15:24:10 2015
 By Ads
</metadata>
<defs>
<font id="iconfont" horiz-adv-x="1024" >
  <font-face 
    font-family="iconfont"
    font-weight="500"
    font-stretch="normal"
    units-per-em="1024"
    panose-1="2 0 6 3 0 0 0 0 0 0"
    ascent="812"
    descent="-212"
    x-height="792"
    bbox="34 -151 962.143 792"
    underline-thickness="50"
    underline-position="-100"
    unicode-range="U+0078-E611"
  />
<missing-glyph horiz-adv-x="374" 
d="M34 0v682h272v-682h-272zM68 34h204v614h-204v-614z" />
    <glyph glyph-name=".notdef" horiz-adv-x="374" 
d="M34 0v682h272v-682h-272zM68 34h204v614h-204v-614z" />
    <glyph glyph-name=".null" horiz-adv-x="0" 
 />
    <glyph glyph-name="nonmarkingreturn" horiz-adv-x="341" 
 />
    <glyph glyph-name="x" unicode="x" horiz-adv-x="1001" 
d="M281 543q-27 -1 -53 -1h-83q-18 0 -36.5 -6t-32.5 -18.5t-23 -32t-9 -45.5v-76h912v41q0 16 -0.5 30t-0.5 18q0 13 -5 29t-17 29.5t-31.5 22.5t-49.5 9h-133v-97h-438v97zM955 310v-52q0 -23 0.5 -52t0.5 -58t-10.5 -47.5t-26 -30t-33 -16t-31.5 -4.5q-14 -1 -29.5 -0.5
t-29.5 0.5h-32l-45 128h-439l-44 -128h-29h-34q-20 0 -45 1q-25 0 -41 9.5t-25.5 23t-13.5 29.5t-4 30v167h911zM163 247q-12 0 -21 -8.5t-9 -21.5t9 -21.5t21 -8.5q13 0 22 8.5t9 21.5t-9 21.5t-22 8.5zM316 123q-8 -26 -14 -48q-5 -19 -10.5 -37t-7.5 -25t-3 -15t1 -14.5
t9.5 -10.5t21.5 -4h37h67h81h80h64h36q23 0 34 12t2 38q-5 13 -9.5 30.5t-9.5 34.5q-5 19 -11 39h-368zM336 498v228q0 11 2.5 23t10 21.5t20.5 15.5t34 6h188q31 0 51.5 -14.5t20.5 -52.5v-227h-327z" />
    <glyph glyph-name="uniE600" unicode="&#xe600;" 
d="M219.5 591q93.5 94 226 94t226.5 -94q62 -62 83.5 -144t0 -164.5t-83.5 -144.5q-37 -37 -83 -60t-94.5 -30t-97.5 0t-95 30t-82 60q-94 94 -94 226.5t93.5 226.5zM309 501q37 38 87 51t100 0t87 -51q28 -27 42.5 -63.5t14.5 -73t-14.5 -73t-42.5 -64.5q-57 -56 -137 -56
t-137 56.5t-57 137t57 136.5zM569 243q19 18 45 18t45 -18l220 -220q18 -19 18 -45t-18.5 -44.5t-44.5 -18.5t-45 18l-220 220q-6 6 -10 13.5t-6 15.5t-2 16t2 16t6 15.5t10 13.5z" />
    <glyph glyph-name="uniE601" unicode="&#xe601;" 
d="M856 184q-6 81 -83 167q3 7 4.5 21.5t-5 37.5t-22.5 40v2q0 107 -67 177t-164 71q-97 -1 -163.5 -71t-66.5 -177v-2q-13 -13 -20 -29.5t-7.5 -31t0.5 -24.5t3 -14q-19 -21 -33.5 -41.5t-30.5 -56t-19 -69.5q-2 -41 12 -59q3 -5 8.5 -5.5t12.5 3t14.5 10.5t15.5 18t14 25
q1 -3 2 -6.5t2.5 -8t3.5 -8.5t4 -9t5 -10t5.5 -10.5t6 -11t7.5 -11.5t8.5 -12.5t9.5 -12.5q-26 -6 -42 -24t-17 -36.5t7 -35.5q23 -38 93 -38q106 0 150 42q5 5 15 5t16 -5q43 -42 149 -42q70 0 94 38q7 11 7 25.5t-6 28.5t-20 26t-33 16q40 54 53 100q11 -23 24.5 -38
t24 -17.5t16.5 4.5q14 18 12 59z" />
    <glyph glyph-name="uniE602" unicode="&#xe602;" horiz-adv-x="1025" 
d="M754 -114q-10 0 -18 6l-224 163l-224 -163q-8 -6 -18 -6t-18 6q-18 13 -11 34l86 264l-224 163q-8 5 -11 14.5t0 18.5q6 21 28 21h278l85 264q1 3 2.5 5t3 4.5t3.5 4t4.5 3t5 2.5t5 1.5t5.5 0.5q22 0 29 -21l85 -264h278q10 0 17.5 -5.5t10.5 -15.5q7 -21 -11 -33
l-224 -163l86 -264q2 -7 1 -13t-4 -11.5t-8 -9.5q-4 -3 -8.5 -4.5t-9.5 -1.5zM512 123q10 0 18 -6l167 -122l-64 197q-7 21 11 34l167 121h-207q-21 0 -28 21l-64 196l-64 -196q-1 -3 -2 -5t-2.5 -4t-3 -3.5t-3.5 -3t-4 -2.5t-4 -1.5t-4.5 -1t-4.5 -0.5h-207l167 -121
q18 -13 11 -34l-64 -197l167 122q8 6 18 6z" />
    <glyph glyph-name="uniE603" unicode="&#xe603;" 
d="M423 200v207q0 8 6 14t15 6q7 0 13 -5l136 -102q7 -5 8.5 -13.5t-4.5 -15.5q0 -1 -1 -2t-3 -2l-137 -103q-17 -12 -29 4q-4 6 -4 12z" />
    <glyph glyph-name="uniE604" unicode="&#xe604;" 
d="M594 731q-1 1 -2 1h-4q-14 1 -25 -8t-14 -22q-2 -8 -0.5 -15.5t6 -14t10.5 -10.5t14 -6q125 -26 195.5 -133t45.5 -233q-2 -7 -0.5 -14.5t5.5 -13.5q9 -14 25 -17q3 -1 6 -1t6 0.5t5.5 1t5.5 2t5 3.5q14 8 17 24q21 103 -11.5 200.5t-109.5 166t-180 89.5v0zM661 154
q4 -2 7 -4t14.5 -10.5t21.5 -16.5t24 -20t25 -23q39 -40 38 -70q-1 -29 -34 -61q-8 -8 -20.5 -17t-47 -22.5t-70.5 -13.5q-33 0 -68 10q-12 4 -24 9t-24 11t-24 14q-71 42 -128.5 98t-109.5 136q-34 51 -58.5 105t-36.5 93.5t-18.5 78.5t-7.5 57.5t-1 32.5q0 38 12 71.5
t28 53.5t36.5 37t31 23t18.5 9q26 12 47 12q5 0 10 -0.5t9 -1.5q12 -4 23 -13t19 -26q12 -26 22.5 -61t18.5 -73q5 -25 -2.5 -42.5t-17 -24t-28.5 -16.5h-1q-51 -22 -60 -25q-7 -3 -10 -9.5t0 -13.5q31 -95 90 -187q59 -90 132 -157q5 -5 12 -5h1q8 1 13 7q17 22 33 36
q35 34 65 34h5q2 0 4 -1h4q2 -1 4 -1l10 -5q6 -3 13 -8v0zM499 416q-15 4 -24 17q-4 6 -5.5 13.5t-0.5 15.5q3 14 14 22.5t25 7.5h7q67 -14 104.5 -71.5t23.5 -123.5q-3 -16 -16 -25q-11 -7 -23 -6l-6 1q-16 3 -24.5 16t-5.5 29q3 17 0 34.5t-13 31.5q-20 31 -56 38v0z
M539 537q-15 3 -24 16.5t-6 28.5q2 7 5.5 13t8.5 10t11.5 6t13.5 2q4 0 7 -1q36 -7 68 -23.5t59 -40.5t48 -55q63 -95 40 -207q-2 -5 -4 -9.5t-5.5 -8.5t-7.5 -7q-10 -6 -23 -6q-3 0 -6 1q-15 3 -24 16.5t-6 28.5q17 81 -28.5 150t-126.5 86zM539 537z" />
    <glyph glyph-name="uniE605" unicode="&#xe605;" 
d="M788 261l-251 251q-1 3 -3.5 5t-5.5 4t-6 3t-6 1.5t-6 0.5v0h-1q-6 0 -11 -2q-11 -4 -16 -12l-251 -251q-4 -4 -6 -10t-1.5 -11.5t3 -11.5t6.5 -11q10 -9 22.5 -9.5t21.5 8.5l1 1l1 1l198 198l1 -471q-1 0 -1 -2l1 -1q0 -3 0.5 -6.5t2 -6t3.5 -5t5 -4.5t6 -3t6.5 -2
t7.5 -1q14 0 23.5 8t9.5 20v474l198 -198l2 -1v-1q9 -9 21.5 -8.5t22 10t10.5 22t-8 21.5zM914 632q0 -12 -8.5 -20.5t-20.5 -8.5h-751q-6 0 -11 2.5t-9 6t-6.5 9t-2.5 11.5q0 11 8.5 19.5t20.5 8.5h751q29 0 29 -28z" />
    <glyph glyph-name="uniE606" unicode="&#xe606;" 
d="M780 -120q-2 0 -4.5 0.5t-4.5 2.5l-259 188l-259 -188q-9 -7 -18.5 0t-5.5 18l98 304l-258 188q-10 7 -6.5 18t15.5 11h320l99 304q3 10 15 10t15 -10l99 -304h320q12 0 15 -11q2 -5 0.5 -10t-6.5 -8l-258 -188l98 -304q4 -11 -5 -18q-5 -3 -10 -3z" />
    <glyph glyph-name="uniE607" unicode="&#xe607;" 
d="M902 -26l-177 177q66 88 66 198q0 55 -18 107q-22 63 -66 112.5t-100.5 75.5t-122 32t-128.5 -17q-67 -23 -117.5 -70.5t-77.5 -109.5t-27 -130q0 -55 19 -108q21 -63 65.5 -112t101 -75.5t121.5 -32.5t129 18q49 17 91 48l177 -177q10 -11 25 -11.5t25 9.5l16 16
q9 10 8.5 24.5t-10.5 25.5zM541 123q-94 -33 -183 11q-28 14 -52 34.5t-41.5 46.5t-27.5 56q-14 38 -14 78q0 50 20.5 96t57 79.5t84.5 50.5q93 32 182 -11q44 -21 75 -56.5t47 -80.5q13 -38 13 -78q0 -77 -44.5 -139t-116.5 -87z" />
    <glyph glyph-name="uniE608" unicode="&#xe608;" 
d="M832 583q7 0 12 -5t5 -12v-430q0 -5 -2.5 -9t-6 -6t-8.5 -2h-647q-7 0 -11.5 5t-4.5 12v430q0 7 4.5 12t11.5 5h647zM832 630h-647q-26 0 -44.5 -19t-18.5 -45v-430q0 -27 18.5 -45.5t44.5 -18.5h647q27 0 45.5 18.5t18.5 45.5v430q0 13 -5 25t-13.5 20.5t-20.5 13.5
t-25 5zM797 548q5 0 8.5 -3.5t3.5 -8.5v-320q0 -5 -3.5 -8.5t-8.5 -3.5h-577q-5 0 -8.5 3.5t-3.5 8.5v320q0 5 3.5 8.5t8.5 3.5h577zM797 565h-577q-12 0 -20.5 -8.5t-8.5 -20.5v-320q0 -12 8.5 -20.5t20.5 -8.5h577q6 0 11.5 2t9.5 6t6 9.5t2 11.5v320q0 12 -8.5 20.5
t-20.5 8.5zM423 54q0 -2 -0.5 -6.5t-3.5 -16.5t-8.5 -22.5t-17.5 -21t-28 -15.5h279q-2 1 -6 3.5t-13.5 10t-17 16.5t-13 23t-4.5 29h-167zM700 -58q0 -8 -6.5 -14t-15.5 -6h-342q-9 0 -15.5 6t-6.5 14v1q0 8 6.5 14t15.5 6h342q6 0 11 -2.5t8 -7t3 -10.5v-1zM241 520
l549 -293v293h-549z" />
    <glyph glyph-name="uniE609" unicode="&#xe609;" 
d="M537 139q-5 0 -10.5 -2t-9 -6t-4.5 -8l-39 -152q-2 -5 0.5 -8.5t8 -6t11.5 -2.5h427q6 0 11.5 2.5t8 6t1.5 8.5l-37 152q-1 6 -8 11t-16 5h-344zM799 128q-1 5 5 5h11q5 -2 7 -5v-4q1 -2 -1 -3.5t-4 -1.5h-11q-6 2 -7 5v4zM738 108h18l1 -12h-19v12zM738 92h19l1 -12h-19
zM739 75h19l1 -12h-20v12zM739 59h20v-12h-20v12zM740 42h20v-12h-20v12zM740 26h20l1 -12h-21v12zM712 108h19v-12h-19v12zM712 92h19v-12h-19v12zM712 75h20v-12l-20 1v11zM712 59h20v-12h-20v12zM712 42h20v-11h-20v11zM712 26h20l1 -12h-21v12zM687 108h18v-12h-19z
M686 92h19v-12h-19v12zM686 75h19v-11h-20zM685 59h20v-12h-20v12zM684 42h21l-1 -11h-20v11zM684 26h20v-12h-21zM661 108h19l-1 -11h-18v11zM660 92h19v-12h-20zM659 75h19v-11h-20zM658 59h20l-1 -12h-20zM657 43h20l-1 -12h-20zM656 26h20v-12h-21zM562 15h-21l2 12h21z
M565 31h-21l3 12h20zM567 48h-19l2 11h19zM570 64h-19l2 12h19zM573 80h-19l2 12h19zM576 97h-19l2 11h19zM590 15h-20l2 12l20 -1zM593 31h-21l2 12h20zM595 48h-20l2 11h20zM597 64h-19l2 12h19zM599 80h-19l2 12h19zM602 97h-19l2 11h18zM619 15h-21l2 11h20zM621 31h-21
l2 12h20zM622 47l-20 1l2 11h20zM624 64h-19l1 12h19zM626 80h-19l1 12h19zM628 97h-19l1 11h19zM647 14l-20 1l1 11h20zM648 31h-20l1 12h20zM650 47h-20l1 12h20zM651 64h-20l2 12l19 -1zM652 80h-19l1 12h19zM654 97h-19l1 11h18v-11zM767 -39q0 -2 -2 -3.5t-5 -1.5
l-105 1q-7 0 -7 5l3 42q1 5 8 5l98 -1q7 0 7 -5zM790 14h-21l-1 12h21zM788 30h-20l-1 12h20zM787 47h-20l-1 12h20zM786 63h-20l-1 12h20zM784 80h-19l-1 12h19zM783 96h-19l-1 12h19zM783 119h-11q-7 0 -7 5v4q0 2 1.5 3.5t4.5 1.5h11q2 0 4 -1.5t2 -3.5l1 -4q0 -5 -6 -5z
M818 14h-21l-1 12l21 -1zM816 30h-20l-1 12h20zM814 47h-20l-1 12l20 -1zM812 63h-19l-1 12h19zM811 80h-20l-1 12h19zM809 96h-19l-1 12h18zM846 13l-20 1l-2 11h21zM844 30h-20l-2 12h20zM842 47h-20l-2 11h20zM839 63h-19l-2 12h20zM837 80h-19l-2 12l19 -1zM835 96h-19
l-2 12h19zM875 13h-21l-2 12h21zM872 30h-20l-2 12h20zM869 46l-20 1l-2 11h20zM866 63h-19l-2 12h19zM863 80h-19l-2 11h19zM860 96h-18l-2 12h18zM856 124q-2 -4 -6 -5h-11q-6 0 -7 5v4q-1 2 0.5 3.5t4.5 1.5h11q3 0 5 -1.5t2 -3.5zM889 124q1 -2 -0.5 -3.5t-4.5 -1.5h-11
q-6 0 -7 5l-1 4q0 2 1.5 3.5t3.5 1.5h12q2 0 4 -1.5t3 -3.5v-4zM892 420h-365q-2 0 -4 -1t-3 -3t-1 -5v-252q0 -9 8 -9h365q7 0 7 9v252q-1 8 -7 9zM882 175q-1 -6 -7 -7h-332q-3 0 -5 2t-2 5v221q0 7 7 7h332q7 0 7 -7v-221zM881 -2q0 -3 -6 -3h-381q-5 0 -6 3v1q0 4 6 4
h381q5 -1 6 -4v-1zM552 258q-1 121 1 127q1 2 16.5 2t37.5 -1h44q22 -1 37 -2l15 -1q-133 -4 -137 -11q-1 -2 -2.5 -9t-2.5 -17.5t-2.5 -22t-2.5 -23.5t-2 -21.5t-1 -14.5zM880 283q0 -122 -2 -128q-6 -2 -39.5 -1.5t-71.5 2.5l-38 1q132 4 137 12q1 2 2 9t2.5 17t3 22
t2.5 23.5t2 21t1 15.5v6h1zM445 -45l13 50v55h6q4 0 8 -1l7 26h-7q-3 0 -7 0.5t-7 0.5v94q9 0 18.5 -0.5t18.5 -0.5v26q-9 0 -18.5 0.5t-18.5 0.5v72h37v26h-37v72h10q4 0 8.5 0.5t9 0.5t9.5 1v25q-18 -1 -37 -1v95q37 0 72 4q3 -8 5.5 -15.5t4.5 -15.5q2 -7 3.5 -14
t3.5 -14h26q-7 33 -17 62l12 2l10 2l12 2l10 2q22 -31 37 -70h27q-5 14 -10.5 27t-12.5 25.5t-14 23.5q13 3 26 7q8 -7 13 -13q25 -24 44 -54q-2 -2 -4.5 -3t-5 -2.5t-5.5 -3t-5.5 -2.5t-5.5 -2.5t-6 -2.5h71q-3 6 -5 8q-3 6 -6 11.5t-7 11.5q-21 34 -51 62q-5 5 -10.5 10
t-11.5 10q-93 75 -213 75q-17 0 -34 -1.5t-33.5 -5t-32 -8.5t-30.5 -11t-29.5 -13.5t-28 -16.5t-25.5 -19t-22 -20q-15 -14 -27.5 -29.5t-23.5 -32.5q-7 -11 -13 -23q-40 -74 -40 -158.5t40 -159.5q6 -12 13 -22q22 -35 51 -63q10 -10 22 -19q44 -36 98.5 -56t114.5 -20v3z
M628 545q-1 0 -2 -0.5t-2 -0.5q-5 -1 -13 -3q-5 6 -9.5 11.5t-10 10.5t-10.5 10q12 -6 24 -13t23 -15zM582 535q-16 -4 -35 -6q-14 35 -32 59q19 -9 35.5 -22.5t31.5 -30.5zM458 602q7 -2 14 -7t14 -12q19 -20 35 -57l-63 -4v80zM375 588q-9 -12 -17 -27t-15 -32
q-18 2 -35 6q30 35 67 53zM303 278q1 -42 6 -83q-36 -7 -68 -17q-6 24 -10 49t-5 51h77zM226 304q2 52 15 100q4 -1 9 -2.5t10 -2.5q11 -4 23.5 -6.5t25.5 -4.5q-5 -41 -6 -84h-77zM266 159q22 6 46 10q8 -50 22 -91q-12 -1 -23 -3t-21 -4q-25 36 -42 83q10 3 18 5zM312 413
q-34 6 -63 16q7 23 17.5 44t23.5 39q21 -5 44 -8q-2 -7 -4.5 -13.5t-4.5 -13.5q-7 -30 -13 -64zM309 573q-16 -15 -30 -32q-7 1 -17 4q11 8 23 15t24 13zM224 512q6 6 14 13l22 -6h1l2 -1q-6 -9 -11.5 -18.5t-9.5 -19.5l-10 -22q-4 -10 -8 -21q-4 2 -5 2q-11 4 -20.5 9
t-18.5 10q19 30 44 54zM167 435q4 -2 7.5 -4t7.5 -4l8 -4q4 -2 8.5 -3.5t9 -3.5t8.5 -4q-14 -52 -15 -108h-69q1 23 5.5 46t12 44t17.5 41zM132 278h69q1 -56 15 -108q-1 0 -3 -1l-3 -1q-12 -5 -22.5 -10.5t-20.5 -10.5q-15 30 -24 63t-11 68zM224 70q-25 25 -44 54
q6 4 13 7.5t15 7t16 6.5q15 -44 39 -81q-3 -1 -5 -2h-6q-2 -1 -4.5 -2t-5 -1.5t-4.5 -1.5q-8 6 -14 13zM262 37l2 1h2q5 2 13 4q14 -18 30 -33q-24 12 -47 28zM308 48q16 3 35 5q4 -11 9.5 -21.5t11 -19.5t11.5 -17q-37 18 -67 53zM432 -20q-14 5 -28 20q-9 10 -18 24
t-16 32q30 3 62 4v-80zM432 86q-18 -1 -36.5 -2t-35.5 -3q-5 15 -10 31q-7 29 -12 61q46 7 94 7v-94zM432 206q-50 -1 -98 -7q-4 38 -5 79h103v-72zM432 304h-103q1 40 5 80q10 -2 19 -3t19 -2t20 -1l20 -2h20v-72zM432 402q-49 1 -94 7q2 17 5.5 33t7.5 30.5t9 28.5
q36 -4 72 -4v-95zM370 526q15 36 34 57q14 14 28 19v-80q-31 1 -62 4z" />
    <glyph glyph-name="uniE60A" unicode="&#xe60a;" 
d="M325 -50zM882 -50zM236 -65zM960 -65zM64 23zM958 23zM81 -66zM1023 -66zM24 70zM65 392q0 -108 80.5 -184.5t192.5 -75.5l294 2v-184l322 249l-322 249v-187l-294 -1q-60 0 -102 38t-42 94q0 54 42 92.5t102 38.5h518v128h-518q-74 0 -137 -35t-99.5 -94.5t-36.5 -129.5
zM960 70z" />
    <glyph glyph-name="uniE60B" unicode="&#xe60b;" 
d="M512 748q-91 0 -168.5 -45t-122.5 -122.5t-45 -168.5q0 -142 242 -447q53 -67 94 -113q14 16 36.5 42t80.5 100.5t102.5 141.5t81 145.5t36.5 130.5q0 68 -26.5 130.5t-72 107.5t-107.5 71.5t-131 26.5zM714 412q0 -41 -16 -78t-43 -64t-64.5 -43t-78.5 -16t-78.5 16
t-64.5 43t-43 64t-16 78q0 84 59.5 143t143 59t142.5 -59t59 -143z" />
    <glyph glyph-name="uniE60C" unicode="&#xe60c;" 
d="M860 303q-1 1 -314 357q-12 13 -34 13t-34 -13q-211 -234 -315 -358q-11 -12 -0.5 -25t34.5 -13h201v-315h240v315h188q15 0 26 5.5t13.5 14.5t-5.5 19z" />
    <glyph glyph-name="uniE60D" unicode="&#xe60d;" 
d="M620 78l-168 167q15 27 15 58t-15 58l168 167q34 -19 74.5 -13t69.5 34q35 36 35 86.5t-35 86.5q-24 23 -55 31.5t-62.5 0t-55.5 -31.5q-29 -29 -34.5 -69.5t13.5 -74.5l-167 -168q-34 19 -74.5 13.5t-69.5 -34.5q-36 -35 -36 -85.5t36 -86.5q19 -19 44 -28t51 -7t49 14
l167 -167q-19 -35 -13.5 -75.5t34.5 -69.5q36 -35 86.5 -35t86.5 35q23 24 31.5 55.5t0 62.5t-31.5 55q-19 19 -44 28t-51 7t-49 -14z" />
    <glyph glyph-name="uniE60E" unicode="&#xe60e;" 
d="M736 716h-128q-59 0 -89.5 -12t-70.5 -52l-320 -320q-30 -30 -31.5 -76.5t31.5 -83.5l256 -256q9 -9 19.5 -15.5t21.5 -10t21 -5t21 -1.5q45 0 77 32l320 320q40 40 52 71.5t12 88.5v128q0 109 -41.5 150.5t-150.5 41.5zM704 396q-40 0 -68 28t-28 68t28 68t68 28t68 -28
t28 -68t-28 -68t-68 -28z" />
    <glyph glyph-name="uniE60F" unicode="&#xe60f;" 
d="M512 448l-141 -158l142 -159l141 157z" />
    <glyph glyph-name="uniE611" unicode="&#xe611;" 
d="M891 748q29 0 49 -21.5t20 -52.5v-57q0 -30 -20 -52t-49 -22h-758q-29 0 -49 22t-20 52v57q0 31 20 52.5t49 21.5h758v0zM891 402q29 0 49 -21.5t20 -52.5v-56q0 -31 -20 -52.5t-49 -21.5h-758q-29 0 -49 21.5t-20 52.5v56q0 31 20 52.5t49 21.5h758v0zM891 57
q29 0 49 -22q6 -7 10.5 -15.5t7 -17.5t2.5 -19v-57q0 -31 -20 -52.5t-49 -21.5h-758q-29 0 -49 21.5t-20 52.5v57q0 31 20 52.5t49 21.5h758v0zM891 57z" />
  </font>
</defs>
</svg>
