<?xml version="1.0" standalone="no"?>
<!DOCTYPE svg PUBLIC "-//W3C//DTD SVG 1.1//EN" "http://www.w3.org/Graphics/SVG/1.1/DTD/svg11.dtd" >
<svg xmlns="http://www.w3.org/2000/svg">
<metadata>
Created by FontForge 20120731 at Mon Jun 29 17:28:30 2015
 By Ads
</metadata>
<defs>
<font id="iconfont" horiz-adv-x="1024" >
  <font-face 
    font-family="iconfont"
    font-weight="500"
    font-stretch="normal"
    units-per-em="1024"
    panose-1="2 0 6 3 0 0 0 0 0 0"
    ascent="812"
    descent="-212"
    x-height="792"
    bbox="0 -218 1022 812"
    underline-thickness="50"
    underline-position="-100"
    unicode-range="U+0078-E624"
  />
<missing-glyph horiz-adv-x="374" 
d="M34 0v682h272v-682h-272zM68 34h204v614h-204v-614z" />
    <glyph glyph-name=".notdef" horiz-adv-x="374" 
d="M34 0v682h272v-682h-272zM68 34h204v614h-204v-614z" />
    <glyph glyph-name=".null" horiz-adv-x="0" 
 />
    <glyph glyph-name="nonmarkingreturn" horiz-adv-x="341" 
 />
    <glyph glyph-name="x" unicode="x" horiz-adv-x="1001" 
d="M281 543q-27 -1 -53 -1h-83q-18 0 -36.5 -6t-32.5 -18.5t-23 -32t-9 -45.5v-76h912v41q0 16 -0.5 30t-0.5 18q0 13 -5 29t-17 29.5t-31.5 22.5t-49.5 9h-133v-97h-438v97zM955 310v-52q0 -23 0.5 -52t0.5 -58t-10.5 -47.5t-26 -30t-33 -16t-31.5 -4.5q-14 -1 -29.5 -0.5
t-29.5 0.5h-32l-45 128h-439l-44 -128h-29h-34q-20 0 -45 1q-25 0 -41 9.5t-25.5 23t-13.5 29.5t-4 30v167h911zM163 247q-12 0 -21 -8.5t-9 -21.5t9 -21.5t21 -8.5q13 0 22 8.5t9 21.5t-9 21.5t-22 8.5zM316 123q-8 -26 -14 -48q-5 -19 -10.5 -37t-7.5 -25t-3 -15t1 -14.5
t9.5 -10.5t21.5 -4h37h67h81h80h64h36q23 0 34 12t2 38q-5 13 -9.5 30.5t-9.5 34.5q-5 19 -11 39h-368zM336 498v228q0 11 2.5 23t10 21.5t20.5 15.5t34 6h188q31 0 51.5 -14.5t20.5 -52.5v-227h-327z" />
    <glyph glyph-name="uniE600" unicode="&#xe600;" 
d="M739 396q32 0 59.5 16t43.5 43.5t16 59.5q0 49 -35 84t-84 35q-20 0 -38 -6t-32.5 -17t-25.5 -25.5t-17 -32.5t-6 -38v-8q0 -4 1 -9l-250 -96q-35 38 -86 38q-50 0 -84.5 -35t-34.5 -84.5t34.5 -84t84.5 -34.5q6 0 12 0.5t12 1.5l12 4q6 1 11.5 3.5t10.5 5.5t10 7
l170 -113q-6 -12 -8.5 -24.5t-2.5 -25.5q0 -32 15.5 -59.5t43 -43.5t60.5 -16q49 0 84 35t35 84q0 19 -6 37.5t-17.5 33t-26 25.5t-32.5 17t-37 6q-49 0 -83 -34l-164 109q19 30 19 66v9q0 5 -1 9t-2 9l-2 8q-1 5 -3 9l240 92q16 -27 43.5 -44t60.5 -17zM285 245
q-16 0 -30 6t-24 16t-16 24t-6 29.5t6 29.5t16 24t24 16t30 6q20 0 37.5 -10t27.5 -27.5t10 -37.5q0 -32 -22 -54t-53 -22zM631 137q31 0 53 -22.5t22 -53.5q0 -20 -10 -37.5t-27.5 -28t-37.5 -10.5q-32 0 -54 22.5t-22 53.5q0 15 6 29.5t16 24.5t24 16t30 6zM739 591
q31 0 53 -22t22 -53.5t-22 -53.5t-53 -22q-13 0 -24.5 3.5t-20.5 10.5t-16 16.5t-11 21t-4 23.5q0 16 6 30t16 24t24 16t30 6z" />
    <glyph glyph-name="uniE601" unicode="&#xe601;" 
d="M282 555q-20 -20 -49 -20q-9 0 -18 2t-17 6.5t-14 11.5l-33 33l98 99l33 -33q7 -6 11.5 -14t7 -17t2.5 -18q0 -30 -21 -50zM249 621l-33 -33q7 -7 16.5 -7t16.5 7t7 16.5t-7 16.5zM397 412l-147 143l32 33l147 -142zM751 50l-133 140l33 33l133 -140zM850 -16
q-17 -17 -38 -25.5t-44 -8.5q-48 0 -82 34l-148 154l33 33l148 -154q20 -21 49 -20.5t49 20.5q10 10 15.5 23t5.5 26.5t-5.5 26.5t-15.5 23l-147 154l33 33l147 -154q34 -34 34 -82.5t-34 -82.5zM802 384q-48 -47 -115 -47q-33 0 -62.5 12t-52.5 35q-48 48 -48 116t48 115
l42 43l33 -33l-43 -43q-34 -34 -34 -82q0 -23 9 -44.5t25 -38.5q34 -34 83 -34q23 0 44 9t38 25l42 43l33 -33zM844 427l-49 50l-17 -17q-27 -27 -65 -27q-13 0 -24.5 3t-22 9t-19.5 15q-4 4 -8 9t-7 10.5t-5.5 11t-4 11.5t-2 12t-0.5 12q0 39 27 66l16 17l-49 49l33 33
l82 -82l-49 -50q-7 -7 -10.5 -15.5t-3.5 -17.5q0 -19 13.5 -33t33 -14t33.5 14l49 50l82 -83zM234 45v47h46v-47h-46zM538 273l-92 91l33 33l92 -91zM304 17l174 240l37 -28l-177 -244q-16 -16 -37.5 -25t-44.5 -9q-15 0 -30 4t-28 11.5t-24 18.5q-34 34 -34 83
q0 23 8.5 44.5t25.5 37.5l3 3l240 175l28 -38l-239 -174q-20 -20 -20 -48q0 -29 21 -50q19 -19 48 -19.5t49 18.5z" />
    <glyph glyph-name="uniE602" unicode="&#xe602;" 
d="M522 303q-94 0 -160.5 66.5t-66.5 160.5t66.5 160.5t160.5 66.5t160.5 -66.5t66.5 -160.5t-66.5 -160.5t-160.5 -66.5zM522 706q-73 0 -124.5 -51.5t-51.5 -124.5t51.5 -125t124.5 -52t125 52t52 125q0 48 -23.5 88.5t-64.5 64t-89 23.5zM197 -51l30 270l140 56l19 -46
l-112 -45l-21 -184h550l-21 184l-112 45l19 46l140 -56l30 -270h-662z" />
    <glyph glyph-name="uniE603" unicode="&#xe603;" 
d="M386 253q-53 0 -90 37.5t-37 90t37 89.5t89.5 37t89.5 -37t37 -90q0 -20 -6.5 -39.5t-18 -35t-27 -27.5t-35 -18.5t-39.5 -6.5zM386 456q-32 0 -54 -22t-22 -53.5t22 -54t54 -22.5q15 0 29 6t24 16.5t16 24.5t6 29q0 32 -22 54t-53 22zM512 46l-22 137l-62 21l16 48
l91 -30l27 -167zM281 183l-22 -137l-50 9l28 167l90 30l16 -48zM613 406v50h101v-50h-101zM613 304v51h202v-51h-202zM613 203v50h202v-50h-202zM613 101v51h202v-51h-202zM386 -51v51h252v-51h-252zM689 -51v51h177v558h-708v-558h177v-51h-227v659h808v-659h-227z" />
    <glyph glyph-name="uniE604" unicode="&#xe604;" 
d="M633 391q-24 0 -44.5 12t-32.5 32.5t-12 45t12 45.5t32.5 33t44.5 12q10 0 20 -2.5t18.5 -7t16.5 -10.5t14 -14t10.5 -17t6.5 -19t2 -20q0 -18 -7 -35t-18.5 -29t-28 -19t-34.5 -7zM633 535q-5 0 -10 -1t-9 -2.5t-8 -4t-7.5 -5.5t-6.5 -6.5t-5.5 -7.5t-4 -8.5t-2.5 -9
t-1 -9.5q0 -23 16 -38.5t38 -15.5t37.5 15.5t15.5 38t-15.5 38.5t-37.5 16zM894 24q-12 0 -23.5 3t-21 9t-18 14t-14 18t-8.5 21.5t-3 23.5q0 38 26 64t62.5 26t62.5 -26t26 -64q0 -24 -12 -44.5t-32.5 -32.5t-44.5 -12zM894 167q-22 0 -37.5 -15.5t-15.5 -38t15.5 -38
t37.5 -15.5t38 15.5t16 38t-16 38t-38 15.5zM315 -4q-24 0 -44.5 12t-32.5 32.5t-12 44.5q0 38 26 64t63 26t63 -26t26 -63.5t-26 -63.5t-63 -26zM315 139q-22 0 -37.5 -15.5t-15.5 -38t15.5 -38.5t37.5 -16t37.5 16t15.5 38.5t-15.5 38t-37.5 15.5zM824 194l-137 200l30 20
l137 -200zM396 169l-30 20l171 222l30 -20zM235 179l-192 243l29 21l192 -242z" />
    <glyph glyph-name="uniE605" unicode="&#xe605;" 
d="M303 -51v693h-64v-693h-64v756h192v-756h-64zM558 -51v567h-63v-567h-64v630h191v-630h-64zM814 -51v378h-64v-378h-64v441h192v-441h-64z" />
    <glyph glyph-name="uniE606" unicode="&#xe606;" 
d="M392 290q-59 0 -108.5 29t-78.5 79t-29 109q0 89 63.5 153t152.5 64q59 0 108.5 -29.5t78.5 -79.5t29 -108q0 -90 -63.5 -153.5t-152.5 -63.5zM392 675q-69 0 -118.5 -49.5t-49.5 -119t49.5 -119t119 -49.5t118.5 49.5t49 119.5q0 45 -22.5 84t-61 61.5t-84.5 22.5z
M656 290v48q33 0 60.5 16t43.5 44t16 60q0 25 -9.5 47t-25.5 38.5t-38 26t-47 9.5v48q70 0 119 -49.5t49 -119t-49 -119t-119 -49.5zM728 0v49h89l-18 125l-77 21l12 46l108 -28l30 -213h-144zM101 -48l30 251l113 37l15 -46l-84 -27l-20 -167h474l-20 167l-84 27l15 46
l114 -37l29 -251h-582z" />
    <glyph glyph-name="uniE607" unicode="&#xe607;" 
d="M126 -42v649h383v-48h-335v-553h670v337h48v-385h-766zM549 267l230 231l34 -34l-277 -278l-45 90l-91 46l278 278l34 -34l-231 -231l45 -23zM864 515l-17 -17l-135 136l16 17q7 7 15 12.5t16.5 9t18 5t18.5 1.5q40 0 68 -28q5 -5 9.5 -11t8 -13t6 -14t3.5 -14.5t1 -15.5
q0 -40 -28 -68v0zM830 617q-20 20 -46 13l58 -59q2 6 2 12q0 5 -1 9.5t-2.5 9t-4.5 8.5t-6 7v0zM496 149l-198 -66l66 199l45 -15l-35 -108l107 36z" />
    <glyph glyph-name="uniE608" unicode="&#xe608;" 
d="M145 549v49h734v-49h-734zM145 -41v49h734v-49h-734zM218 475v49h49v-49h-49zM292 475v49h49v-49h-49zM365 475v49h49v-49h-49zM218 82v245h196v-245h-196zM365 278h-98v-147h98v147zM463 278v49h171v-49h-171zM121 401v197h782v-197h-782zM854 549h-684v-99h684v99z
M121 -41v368h49v-319h684v343h49v-392h-782zM463 278v49h171v-49h-171zM463 180v49h343v-49h-343zM463 82v49h343v-49h-343z" />
    <glyph glyph-name="uniE609" unicode="&#xe609;" 
d="M521 -59q-71 0 -136 28t-112 75t-74.5 111.5t-27.5 136.5q0 95 47 175.5t127.5 127.5t175.5 47q36 0 70.5 -7.5t65.5 -20.5t59.5 -32t52 -42.5t42.5 -52t32.5 -59.5t20.5 -66t7 -70.5t-7 -70.5t-20.5 -66t-32.5 -59t-42.5 -52t-52 -43t-59.5 -32t-65.5 -20.5t-70.5 -7.5z
M521 593q-129 0 -215.5 -86.5t-86.5 -215t86.5 -215t215.5 -86.5t215.5 86.5t86.5 215t-86.5 215t-215.5 86.5zM336 249v71h357v-71h-357zM478 106v357h72v-357h-72z" />
    <glyph glyph-name="uniE60A" unicode="&#xe60a;" 
d="M202 -123v305h56v-250h502v361h56v-416h-614zM931 226l-424 422l-424 -422l-39 40l463 460l463 -460zM606 236l-1 -1q-41 -40 -99 -39.5t-98 41.5q-10 10 -17.5 21.5t-12.5 24t-7.5 25.5t-2.5 26t2.5 26.5t7.5 26t12.5 24t17.5 21.5q42 41 100 40.5t98 -41.5
q41 -40 40.5 -97.5t-40.5 -97.5zM567 392q-25 25 -59.5 25t-59.5 -24q-24 -24 -24.5 -58.5t24.5 -58.5q24 -25 58.5 -25t59.5 24l20 -19l-20 19q12 12 18.5 27.5t6.5 31t-6 31t-18 27.5z" />
    <glyph glyph-name="uniE60B" unicode="&#xe60b;" 
d="M172 -20v551h44v-507h617v507h45v-551h-706zM279 101l-38 22l132 221l38 -23zM525 242l-275 137l20 39l255 -127l254 127l20 -39zM770 101l-132 220l38 23l132 -221zM745 443v198h-441v-198h-44v242h529v-242h-44zM348 553v44h155v-44h-155zM348 465v44h309v-44h-309z
" />
    <glyph glyph-name="uniE60C" unicode="&#xe60c;" 
d="M326 300l313 330q5 5 22.5 5t22.5 -5q3 -3 1.5 -9.5t-5.5 -14t-8 -14t-7 -9.5l-262 -298l262 -297q7 -8 15.5 -25t3.5 -22q-5 -6 -22.5 -6t-22.5 6l-313 330q-6 6 -5 14q-1 9 5 15z" />
    <glyph glyph-name="uniE60D" unicode="&#xe60d;" 
d="M798 34q30 -45 69 -67q29 -17 4 -27q-36 -15 -106 5q-58 17 -103 55q-2 0 -4 -0.5t-4 -0.5h-4h-4q-86 0 -159 38.5t-115.5 104.5t-42.5 144q0 118 93 202t224 84q86 0 158.5 -38t115 -104.5t42.5 -143.5q0 -80 -45 -147.5t-119 -104.5zM646 522q-54 0 -103 -19
t-84.5 -50.5t-56.5 -75t-21 -91.5q0 -64 35.5 -118.5t96.5 -86.5t133 -32q2 0 6 1h1l27 1l15 -13q10 -8 21 -15t21.5 -12.5t21.5 -9.5q-36 51 -36 53l52 25q41 21 72 53t47.5 71.5t16.5 82.5q0 97 -78 166.5t-187 69.5v0zM500 540q-70 64 -171 64q-98 0 -168.5 -62.5
t-70.5 -150.5q0 -58 33 -108t90 -78l51 -25l-27 -41q6 3 11.5 6t11 6.5t11 7.5t11.5 8l15 13l26 -2h6q11 0 23 1q11 -24 27 -47q-26 -4 -50 -4h-14q-68 -56 -152 -59q-48 -2 -50 13q-1 8 14 16q35 20 63 62q-69 34 -110 96t-41 135q0 72 39 132.5t106 95.5t145 35
q67 0 125 -25t99 -69q-27 -8 -53 -20v0z" />
    <glyph glyph-name="uniE60E" unicode="&#xe60e;" 
d="M368 -27q-9 0 -15 6t-6 14q0 4 1.5 8t4.5 6l297 297q6 6 6 14.5t-6 14.5l-297 296q-3 3 -4.5 6.5t-1.5 7.5q0 9 6 15t15 6q2 0 4 -1l6 -2q2 -1 4 -3l296 -297q18 -17 18 -42.5t-18 -43.5l-296 -296q-6 -6 -14 -6z" />
    <glyph glyph-name="uniE60F" unicode="&#xe60f;" 
d="M225 -182v917h573v-917h-573zM747 684h-471v-815h471v815zM328 100v535h367v-535h-367zM643 585h-264v-434h264v434zM460 -74v102h102v-102h-102z" />
    <glyph glyph-name="uniE610" unicode="&#xe610;" 
d="M574 536l-42 42q-8 8 -17 15.5t-18.5 13.5t-19.5 11.5t-20.5 10t-21.5 8t-22 5.5t-22.5 3t-23.5 1q-47 0 -89.5 -17.5t-75.5 -50.5q-68 -69 -68 -166t68 -166l41 -42q-26 -14 -49 -26l-30 30q-84 85 -84 204t84 203.5t203 84.5t203 -85l30 -30q-3 -6 -6.5 -12t-6.5 -12
t-6.5 -12.5t-6.5 -12.5v0zM876 -99q-84 -84 -203 -84t-203 84l-237 238q25 12 49 27l226 -227q68 -69 165 -69t165 69q33 33 51 75.5t18 89.5q0 97 -69 166l-226 227q7 12 13.5 24t13.5 25l237 -238q84 -84 84 -203.5t-84 -203.5v0zM467 311q-86 -86 -185 -145l-39 38
q100 58 186.5 144.5t144.5 187.5l38 -39q-58 -99 -145 -186v0zM233 139l-39 39q24 12 49 26l39 -38q-24 -15 -49 -27v0zM612 497l-38 39q7 13 13.5 25t12.5 24l39 -39q-14 -26 -27 -49v0zM353 388l-112 113l37 38l113 -113zM144 575q-34 42 -53 94t-19 108h53
q0 -44 14 -84.5t39 -74.5q-21 -18 -34 -43z" />
    <glyph glyph-name="uniE611" unicode="&#xe611;" 
d="M68 -162v890h889v-890h-889zM908 678h-791v-790h791v790zM545 157h-1l-218 131l-128 -127l-35 34l155 156l225 -136l292 194l27 -41z" />
    <glyph glyph-name="uniE612" unicode="&#xe612;" 
d="M197 259q-30 -6 -56 2.5t-41 27t-26 42t-12.5 47t0.5 41.5q0 23 17 62q28 66 83 71q47 4 83.5 -35t41.5 -78q1 -12 1.5 -22t0.5 -31.5t-5.5 -39t-14.5 -36.5t-27.5 -32t-44.5 -19v0zM358 -64l-19 6q-24 12 -32 41q-6 22 4 53q3 9 14.5 20.5t28.5 17.5h61v-138h-57z
M397 475q-22 0 -42 12t-34.5 32.5t-23 49t-8.5 59.5q0 63 31.5 108t76 45t76 -45t31.5 -108q0 -31 -8.5 -59.5t-23 -49t-34.5 -32.5t-41 -12zM792 603q-9 -56 -47.5 -100.5t-92.5 -37.5q-38 5 -60 29t-28 55t-1 70q5 47 48.5 96t83.5 40q43 -10 74 -57t23 -95v0zM861 192
q-34 0 -58 9t-36 21.5t-19 34t-8 37t-1 37.5q0 149 107 149q33 0 58 -14.5t37.5 -36t18.5 -40t6 -32.5v-12v-17q0 -7 -1 -19.5t-2.5 -22t-5 -22t-8.5 -22t-13.5 -19t-18.5 -16t-24.5 -10.5t-31.5 -5v0zM879 -123q-44 -104 -203 -83q-40 6 -70 16q-67 21 -149 9l-22 -4
q-26 -6 -53 -9.5t-47 -4t-37 -0.5h-25l-9 1h-6q-4 0 -16 2.5t-23 7t-25.5 14.5t-26.5 23.5t-23.5 36t-17.5 50.5q-6 25 -4 48t8 42t17 36.5t22.5 31t24.5 25t22.5 19.5t17.5 13.5t10 7.5q1 3 25 22.5t53 51t49 65.5q18 30 50 51t70.5 28t82 -15.5t78.5 -76.5q14 -21 33 -43
t37 -41t36.5 -37t34 -31.5t27.5 -24t19 -16.5l7 -5q4 -3 10 -8.5t18.5 -25.5t19 -42.5t4 -59t-18.5 -74.5v0zM479 219l-63 1v-92h-75q-3 0 -8 -1t-19 -6.5t-26.5 -14.5t-26 -27t-20.5 -41q-8 -51 11 -97q3 -7 10.5 -16.5t28.5 -24t48 -19.5h140v338zM739 120h-70v-179h-66
l-14 6q-9 5 -11 14v160l-65 -1v-178v-2q0 -1 1 -4l2 -6q1 -3 3.5 -7.5t6 -9t8.5 -9t11 -8.5t14.5 -8t18.5 -6h161v238z" />
    <glyph glyph-name="uniE613" unicode="&#xe613;" 
d="M858 121q-8 0 -13.5 -5.5t-5.5 -13.5v-96q0 -16 -11.5 -27.5t-26.5 -11.5h-540q-15 0 -26.5 11.5t-11.5 27.5v96q0 4 -1.5 7.5t-4 6t-6 4t-7.5 1.5q-8 0 -14 -5.5t-6 -13.5v-96q0 -32 23 -54.5t54 -22.5h540q31 0 54 22.5t23 54.5v96q0 8 -6 13.5t-14 5.5zM517 108
q6 -6 14 -6l7 2q2 0 4 1.5t3.5 3.5t2.5 4t1.5 4t0.5 4v520q0 8 -5.5 13.5t-13.5 5.5t-13.5 -5.5t-5.5 -13.5v-473l-256 256q-6 5 -14 5t-13.5 -5.5t-5.5 -13.5t6 -13zM646 218q8 0 14 5l173 174q4 3 5.5 8t0 10t-5.5 9q-13 13 -27 0l-173 -174q-6 -5 -6 -13t6 -13.5t13 -5.5
z" />
    <glyph glyph-name="uniE614" unicode="&#xe614;" 
d="M959 -162l-35 -34l-175 174q-116 -103 -270 -103q-110 0 -204 55t-148.5 148.5t-54.5 204.5q0 83 32 158.5t87 130t130 86.5t158 32q111 0 205 -54.5t148.5 -148t54.5 -204.5q0 -154 -103 -270zM838 283q0 97 -48 179.5t-130.5 130.5t-180 48t-180 -48t-130.5 -130.5
t-48 -179.5t48 -179.5t130.5 -130.5t179.5 -48q73 0 139.5 28.5t114.5 76.5t76.5 114t28.5 139zM481 316q-48 0 -82.5 34t-34.5 82q0 31 15.5 57.5t42.5 42t59 15.5q49 0 83.5 -34t34.5 -81.5t-34.5 -81.5t-83.5 -34zM481 494q-27 0 -46 -18.5t-19 -44t19 -44t46 -18.5
t46 18.5t19 44t-19 44t-46 18.5zM565 16h-165q-19 0 -37 8t-30 23t-12 33l14 168q0 27 19.5 46t47.5 19h157q28 0 47.5 -19.5t19.5 -46.5l15 -171q0 -27 -23 -43.5t-53 -16.5v0zM573 247q0 6 -4 9.5t-10 3.5h-157q-4 0 -7 -1.5t-5 -4.5t-2 -7v-3l-14 -164q3 -3 10.5 -7
t15.5 -4h165q7 0 13.5 2t9.5 5z" />
    <glyph glyph-name="uniE615" unicode="&#xe615;" 
d="M525 -47q-140 0 -259 68t-191 183q72 115 191 183t259 68t259 -68t191 -183q-72 -115 -191 -183t-259 -68zM525 404q-117 0 -219.5 -52.5t-170.5 -147.5q68 -95 170.5 -148t219.5 -53t219.5 53t170.5 148q-68 95 -170.5 147.5t-219.5 52.5zM525 80q-51 0 -87 36.5
t-36 87.5q0 25 9.5 48t26 39.5t39.5 26t48 9.5q51 0 87 -36t36 -87t-36 -87.5t-87 -36.5zM525 277q-30 0 -51.5 -21.5t-21.5 -51.5t21.5 -51.5t51.5 -21.5t51.5 21.5t21.5 51.5t-21.5 51.5t-51.5 21.5z" />
    <glyph glyph-name="uniE616" unicode="&#xe616;" 
d="M904 377h-271q21 24 40 52q39 60 51 112.5t-10.5 67t-66 -17.5t-82.5 -92q-8 -12 -15 -24.5t-13 -24.5t-11 -23q-14 36 -38 72q-25 39 -54 68t-54.5 40t-39.5 2q-23 -15 -11 -67.5t51 -112.5q19 -28 40 -52h-271q-4 0 -7.5 -3t-3.5 -8v-514q0 -3 1.5 -5.5t4 -4t5.5 -1.5
h755q2 0 4 1t3.5 2.5t2 3.5t0.5 4v514q0 5 -3 8t-7 3v0zM601 476q41 64 83 89q-1 -7 -3 -15.5t-5.5 -19.5t-9 -23t-13 -26t-16.5 -28q-17 -25 -33.5 -44t-32.5 -32h-15q10 46 45 99v0zM416 453q-42 64 -47 112q16 -10 38.5 -33t44.5 -56q35 -53 45 -99h-15q-35 29 -66 76z
M500 -116h-318v204h318v-204zM500 131h-318v203h318v-203zM871 -116h-327v204h327v-204zM871 131h-327v203h327v-203z" />
    <glyph glyph-name="uniE617" unicode="&#xe617;" 
d="M258 451l19 -111l-100 53l-100 -52l19 110l-80 79l112 16l50 100l50 -101l111 -16zM593 451l19 -111l-100 53l-101 -52l20 110l-81 79l112 16l50 100l50 -101l112 -16zM550 529l-38 77l-38 -77l-85 -12l61 -60l-15 -84l77 40l76 -40l-15 84l62 60zM927 451l19 -111
l-100 53l-100 -52l19 110l-80 79l111 16l51 100l50 -101l111 -16zM885 529l-38 77l-39 -77l-85 -12l62 -60l-15 -84l76 40l76 -40l-14 84l62 60zM245 -66v242h-49v12q14 0 24.5 2.5t18.5 7.5t14 12t10 16h23v-292h-41zM554 76q-16 -21 -42 -47q-14 -14 -30 -29.5t-35 -33.5
h154l-22 -32h-183v7q31 30 55 54q24 23 40 40.5t26 30.5t16 23.5t8 19.5t2 18q0 13 -4 24.5t-12 21.5q-4 4 -9 8t-10 6q-12 6 -28 6h-4q-3 0 -5 -0.5t-5 -0.5l-4 -2q-3 0 -5 -1q-12 -4 -21 -11q-3 -2 -5 -4l-4 -4q-2 -2 -3.5 -4t-3.5 -5q-6 -9 -8 -20h-9q1 9 3 17t6 16
q9 16 21 27q6 6 13.5 10.5t15.5 8t16.5 5t16.5 1.5t15 -0.5t13 -2t12 -3.5q16 -6 28 -17q5 -6 9.5 -12t7.5 -13q2 -5 3 -10l2 -10q1 -5 1 -10q0 -9 -2 -17t-6 -17q-7 -17 -24 -38v0zM819 74q8 -10 13 -22q2 -6 3.5 -12t1.5 -12q0 -25 -10 -44q-3 -5 -6 -9.5t-6.5 -8.5
t-7 -7.5t-8.5 -6.5q-9 -6 -19 -11t-22 -8q-24 -6 -52 -6q-6 0 -11 0.5t-10 1.5t-9 2t-7 3q-6 3 -9.5 7t-3.5 10q0 4 2 7t6 5l7 3q5 1 8 1q8 0 13 -2q2 0 4 -1t3.5 -1.5t2.5 -1.5q5 -2 8 -5q2 0 3 -1t2.5 -2t2.5 -1q4 -3 9 -4.5t13 -1.5q15 0 26.5 5t19 13.5t11.5 19t4 22.5
q0 14 -5.5 27t-17.5 22.5t-30 14.5t-42 5v8q17 1 30 7q7 3 13 6.5t10 7.5q10 9 16 21q2 6 3.5 12.5t1.5 13.5q0 5 -1 9t-3 9q-3 8 -10 14q-4 3 -8 5.5t-9 4.5q-9 3 -21 3q-8 0 -17 -3l-17 -7q-4 -3 -7.5 -6t-7.5 -6q-7 -6 -11 -14l-8 4q4 13 12 24t18.5 19.5t24.5 13.5
q4 2 9 3t10.5 1.5t10.5 0.5q16 0 29.5 -4.5t24.5 -12.5l5 -5l4 -4q2 -2 3.5 -4.5t3.5 -5.5q6 -11 6 -24q0 -4 -1 -7.5t-2.5 -7.5t-4 -8t-5.5 -9q-6 -8 -14 -16t-17 -14q13 -4 23.5 -12t18.5 -18v0z" />
    <glyph glyph-name="uniE618" unicode="&#xe618;" 
d="M914 563h-36v57q0 5 -3.5 9t-8.5 4h-28q-5 0 -9 -4t-4 -9v-57h-86v57q0 5 -3.5 9t-8.5 4h-28q-5 0 -9 -4t-4 -9v-57h-85v57q0 5 -4 9t-9 4h-28q-5 0 -9 -4t-4 -9v-57h-85v57q0 3 -1 5t-3 4t-4 3t-5 1h-28q-11 -2 -12 -13v-57h-86v57q0 5 -4 9t-9 4h-28q-3 0 -6 -2
t-4.5 -4.5t-1.5 -6.5v-57h-86v57q0 5 -3.5 9t-9.5 4h-28q-5 0 -8.5 -4t-3.5 -9v-57h-22q-24 0 -44.5 -11.5t-32.5 -31.5t-12 -44v-452q0 -24 12 -44t32.5 -31.5t44.5 -11.5h805q36 0 62 25.5t26 61.5v452q0 36 -26 61.5t-62 25.5zM713 511q15 0 25 -10.5t10 -24.5t-10 -24.5
t-25 -10.5t-25 10.5t-10 24.5q0 7 2.5 13.5t7.5 11t11.5 7.5t13.5 3zM574 511q15 0 25 -10.5t10 -24.5q0 -9 -4.5 -17t-12.5 -13t-18 -5q-5 0 -9.5 1.5t-8.5 3.5t-7 5.5t-5.5 7t-3.5 8t-1 9.5q0 14 10 24.5t25 10.5zM435 511q7 0 13.5 -3t11.5 -7.5t8 -11t3 -13.5
q0 -14 -10.5 -24.5t-25.5 -10.5t-25 10.5t-10 24.5t10 24.5t25 10.5zM296 511q10 0 18 -4.5t13 -12.5t5 -17.5t-5 -17.5t-13 -13t-18 -5q-14 0 -24.5 10.5t-10.5 24.5q0 5 1 9.5t3.5 8t6 7t7 5.5t8 3.5t9.5 1.5zM157 511q15 0 25.5 -10.5t10.5 -24.5q0 -9 -5 -17t-13 -13
t-18 -5q-14 0 -24.5 10.5t-10.5 24.5q0 7 3 13.5t7.5 11t11 7.5t13.5 3zM483 16h-356v50h55v147h56v-147h55v193h56v-73h97v-50h-97v-70h134v-50zM465 202q-102 53 -158 122q-53 -70 -160 -128q-11 18 -33 50q57 26 98.5 58.5t69.5 72.5h69l-13 -15q57 -70 158 -108
q-19 -30 -31 -52zM878 71v-53h-378v53h108v75l-43 -18q-11 30 -21.5 58t-21 54.5t-20.5 51.5l46 21q8 -18 16 -36.5t15.5 -36.5t14.5 -35.5t14 -34.5v202h56v-301h49v301h55v-207q31 62 61 143l49 -21q-9 -25 -20 -50.5t-23.5 -52.5t-25.5 -55l-41 19v-77h110zM851.5 441
q-9.5 0 -17.5 5t-13 13t-5 17q0 3 0.5 6t2 6t3 5.5t3.5 5t4 4.5t5 3.5t5.5 2.5t6 1.5t6.5 0.5q14 0 24.5 -10.5t10.5 -24.5q0 -9 -4.5 -17t-13 -13t-18 -5z" />
    <glyph glyph-name="uniE619" unicode="&#xe619;" 
d="M312 451l200 -196l199 196q1 2 3 3.5t3.5 2.5t3 2.5t3.5 2.5t4 1.5t4 1.5q11 5 24 5q12 -1 23 -5t21 -14q18 -18 18 -43t-18 -44l-240 -237q-9 -10 -22 -15q-3 -1 -6.5 -2t-6.5 -2t-6 -1t-7 -1q-6 0 -12.5 1t-12.5 3q-12 4 -20 13l-243 241q-18 18 -18 43.5t18 43.5
q9 10 21 14q6 2 11.5 3.5t11.5 1.5q12 0 23.5 -4.5t20.5 -14.5v0zM312 451z" />
    <glyph glyph-name="uniE61A" unicode="&#xe61a;" 
d="M624 325h164v-50h-164v50zM915 576h-36v58q0 5 -3.5 8.5t-8.5 3.5h-29q-3 0 -6 -1.5t-4.5 -4.5t-1.5 -6v-58h-87v58q0 5 -3.5 8.5t-9.5 3.5h-28q-3 0 -5 -1t-4 -2.5t-3 -4t-1 -4.5v-58h-86v58q0 5 -4 8.5t-9 3.5h-28q-4 0 -7 -1.5t-4.5 -4.5t-1.5 -6v-58h-87v58
q0 2 -1 4.5t-2.5 4t-4 2.5t-4.5 1h-29q-2 0 -4.5 -1t-4 -2.5t-2.5 -4t-1 -4.5v-58h-87v58q0 5 -4 8.5t-9 3.5h-28q-3 0 -5 -1t-4 -2.5t-3 -4t-1 -4.5v-58h-87v58q-1 11 -12 12h-29q-5 0 -8.5 -3.5t-3.5 -8.5v-58h-23q-37 0 -63 -26t-26 -62v-458q0 -36 26 -62t63 -26h814
q25 0 45.5 12t32.5 32t12 44v458q0 36 -26.5 62t-63.5 26zM712 523q15 0 25.5 -10t10.5 -25q0 -10 -5 -18t-13 -12.5t-18 -4.5q-15 0 -25.5 10t-10.5 25t10.5 25t25.5 10zM846 374v-148h-280v148h280zM572 523q15 0 25.5 -10t10.5 -25q0 -7 -3 -13.5t-8 -11.5t-11.5 -7.5
t-13.5 -2.5q-15 0 -25.5 10t-10.5 25q0 7 3 13.5t7.5 11.5t11.5 7.5t14 2.5zM431.5 523q14.5 0 25 -10t10.5 -25t-10.5 -25t-25 -10t-25 10t-10.5 25t10.5 25t25 10zM291 523q15 0 25.5 -10t10.5 -25q0 -10 -5 -18t-13 -12.5t-18 -4.5q-15 0 -25.5 10t-10.5 25t10.5 25
t25.5 10zM151 523q5 0 10.5 -1.5t10 -5t8 -8t5 -9.5t1.5 -11q0 -15 -10.5 -25t-24.5 -10q-10 0 -18.5 4.5t-13 12.5t-4.5 18q0 15 10.5 25t25.5 10zM504 300h-107l50 -24l-40 -45h91v-49h-282v-10q0 -85 -51 -167q-7 8 -17.5 17.5t-23.5 22.5q39 64 41 134v52h74
q-5 6 -11 13.5t-13 15t-14 16.5l40 24h-102v49h155q-3 9 -6.5 17.5t-6.5 16.5l61 9l11 -43h151v-49zM691 14h-53v18h-54v-18h-54v182h161v-182zM882 14h-54v18h-54v-18h-54v182h162v-182zM852.5 453q-9.5 0 -18 4.5t-13 12.5t-4.5 18t4.5 18t13 12.5t18.5 4.5q14 0 24.5 -10
t10.5 -25q0 -10 -4.5 -18t-13 -12.5t-18 -4.5zM298 243l-19 -12h65q22 31 47 69h-141zM774 148h54v-69h-54v69zM584 148h54v-69h-54v69z" />
    <glyph glyph-name="uniE61B" unicode="&#xe61b;" 
d="M928 688h-698q-11 0 -20.5 -4t-17 -11.5t-11.5 -17.5t-4 -21v-18h-16q-11 0 -21 -4.5t-17 -11.5t-11 -17t-4 -21v-25h-19q-15 0 -27 -7.5t-19.5 -19.5t-7.5 -27v-532q0 -23 16 -38.5t38 -15.5h697q23 0 38.5 15.5t15.5 38.5v25h19q22 0 37.5 15.5t15.5 37.5v19h16
q22 0 37.5 16t15.5 38v532q0 23 -15.5 38.5t-37.5 15.5zM442 139h-148v-45q0 -18 -6.5 -31.5t-20 -20.5t-22.5 -9q-9 -1 -79 -3q-7 32 -13 56q39 -3 59 -3q9 0 15 3t8.5 9t2.5 15v29h-163v50h163v44h-136v49h136v43l-129 -4q-2 10 -5 22.5t-7 27.5q202 2 307 11l16 -49
l-126 -6v-45h121v-49h-121v-44h148v-50zM469 289q29 -22 57 -46l-35 -39q-29 31 -51 51zM450 356l29 34q27 -20 54 -42l-35 -38q-23 24 -48 46zM443 43q8 30 16.5 65.5t16.5 76.5q23 -10 46 -17l-33 -140q-3 1 -6.5 2.5t-6.5 2.5l-8 2l-6 2t-6.5 2t-6.5 2zM812 142h-51v-61
q0 -13 -2 -22t-6 -14q-9 -11 -23 -14t-57 -3q-3 21 -9 48q22 -1 33 -1q6 0 10 2t6 6t2 10v49h-54v45h54v19l24 31h-67v26l-4 6q-2 3 -4.5 7t-5.5 8h-69v-39h66q-1 -138 -4 -166q-4 -29 -17 -39q-7 -6 -20 -8.5t-33 -2.5q-5 29 -11 51q16 -2 24 -2q6 0 9.5 3t5.5 8
q2 11 3 111h-24q-3 -114 -47 -178q-12 34 -25 57q13 22 20 47l4 18l2 16q2 9 2 18q3 27 3 106h-22v48h52q-9 20 -23 44l44 17q10 -17 16.5 -30t10.5 -22l-19 -9h56q14 28 25 61l47 -9q-5 -17 -12 -33h89v-44h-109q-8 -15 -16 -28h111v-41l-36 -42v-9h51v-45zM881 80v-51
q0 -9 -6.5 -15.5t-15.5 -6.5h-19v476q0 22 -15.5 38t-38.5 16h-647v25q0 9 6.5 15.5t15.5 6.5h698q6 0 11 -3t8 -8t3 -11v-482zM950 102q0 -9 -6.5 -15.5t-15.5 -6.5h-16v482q0 22 -15.5 38t-37.5 16h-651v18q0 10 6.5 16.5t15.5 6.5h698q9 0 15.5 -6.5t6.5 -16.5v-532z" />
    <glyph glyph-name="uniE61C" unicode="&#xe61c;" 
d="M955 715h-744q-16 0 -29 -7.5t-20.5 -21t-7.5 -28.5v-20h-17q-11 0 -22 -4.5t-18.5 -12.5t-12 -18.5t-4.5 -21.5v-27h-20q-15 0 -28.5 -8t-21 -21t-7.5 -29v-568q0 -23 17 -40t40 -17h744q9 0 18 3t16 8.5t12 12.5t8 15.5t3 17.5v27h20q16 0 29 8t20.5 21t7.5 28v21h17
q24 0 40.5 16.5t16.5 40.5v568q0 24 -16.5 40.5t-40.5 16.5zM53 383h376v-47h-163q-10 -23 -20 -42h149v-183h-54v135h-199v-138h-54v186h98q10 22 16 42h-149v47zM404 9q-71 40 -162 82q-43 -60 -158 -83q-16 29 -39 58q25 3 46 6.5t38 9t29.5 12t21.5 14.5
q18 16 27.5 42.5t9.5 62.5v12h55v-11q0 -47 -10 -80q99 -40 172 -77zM465 289q31 -23 61 -49l-37 -41q-31 33 -55 54zM445 361l31 37q15 -12 29 -23t29 -23l-37 -40q-25 26 -52 49zM437 27q19 64 36 151q25 -10 49 -18l-35 -149q-26 9 -50 16zM831 133h-54v-66
q0 -26 -9 -37.5t-24 -15t-61 -3.5q-3 23 -10 51q24 -1 36 -1q19 0 19 20v52h-57v47h57v21l25 33h-71v28q-5 8 -15 22h-73l-1 -42h71q-1 -147 -5 -177q-2 -15 -6 -25.5t-11.5 -16t-21.5 -8.5t-35 -3q-6 31 -11 54q8 -1 14 -1h11q13 0 15.5 11.5t4.5 117.5h-26
q-4 -121 -50 -189q-13 36 -27 61q14 23 21 50q3 14 5.5 27.5t3.5 27.5q2 28 3 113h-24v51h56q-10 22 -24 47l46 18q21 -36 29 -56l-20 -9h59q16 30 27 65l51 -9q-3 -9 -6.5 -18t-6.5 -18h94v-47h-116q-8 -15 -17 -29h118v-44l-38 -45v-10h54v-47zM905 66v-54q0 -9 -7 -16
t-17 -7h-20v507q0 24 -16.5 41t-40.5 17h-690v27q0 4 1.5 8.5t5 7.5t7.5 5t9 2h744q10 0 17 -7t7 -16v-515zM978 90q0 -10 -6.5 -17t-16.5 -7h-17v515q0 23 -16.5 40t-40.5 17h-694v20q0 10 7 16.5t17 6.5h744q10 0 16.5 -6.5t6.5 -16.5v-568z" />
    <glyph glyph-name="uniE61D" unicode="&#xe61d;" 
d="M380 66v81h-22v-90q11 -1 14 -1q8 0 8 10zM958 716h-743q-24 0 -40.5 -17t-16.5 -40v-21h-17q-24 0 -40.5 -16.5t-16.5 -40.5v-26h-20q-12 0 -22.5 -5t-18 -12.5t-12 -18t-4.5 -22.5v-567q0 -24 16.5 -40.5t40.5 -16.5h743q24 0 40.5 16.5t16.5 40.5v27h20
q24 0 40.5 16.5t16.5 40.5v20h17q15 0 28.5 7.5t21 21t7.5 28.5v568q0 15 -7.5 28t-21 21t-28.5 8zM181 115q-1 -13 -3 -49q-56 -10 -121 -24l-8 51l64 11q11 80 21 170l47 -6l-27 -158zM53 265l43 7l20 -142l-43 -8q-3 25 -6 49t-6.5 47.5t-7.5 46.5zM183 282h-130v50h47
q-13 32 -23 51l46 19q11 -20 29 -56l-36 -14h67v-50zM432 219h-106l-7 -25h108v-150q0 -20 -13.5 -26.5t-31.5 -6.5q-13 0 -26 3l-3 19h-34v114h-22v-114h-39v114h-22v-133h-47v180h81l6 25h-89v46h245v-46zM283 333v69h51v-69h37v44h45v-89h-215v89h46v-44h36zM469 290
q31 -23 60 -49l-37 -41q-30 32 -54 54zM448 362l32 37q29 -23 57 -46l-37 -40q-12 13 -25 25t-27 24zM441 29q9 32 18 69.5t17 81.5q13 -6 25.5 -10.5t23.5 -8.5l-35 -149q-13 5 -25 9zM834 134h-54v-65q0 -27 -9 -38q-4 -6 -10 -9.5t-14 -5.5t-23 -2.5t-37 -0.5
q-4 22 -10 51q11 -1 20 -1.5t15 -0.5q19 0 19 20v52h-57v47h57v22l25 32h-71v28q-4 8 -14 22h-74v-42h71q-2 -146 -5 -176q-4 -31 -18.5 -42t-56.5 -11q-5 30 -11 53q17 -1 25 -1q13 1 16 11q3 12 4 118h-26q-4 -120 -50 -189q-4 12 -8.5 23t-9 20.5t-8.5 17.5q13 23 20 50
q3 14 5.5 27.5t4 28t2 42.5t0.5 70h-23v51h55q-5 11 -11 22.5t-13 24.5l46 18q21 -36 29 -56l-20 -9h60q4 8 7.5 15.5t6.5 16.5l6 16q3 9 6 17l51 -9l-6 -18q-3 -9 -7 -18h94v-47h-116q-2 -5 -5 -10l-6 -10q-3 -5 -6 -9h118v-44l-38 -45v-10h54v-47zM908 68v-54
q0 -4 -1.5 -7.5t-3.5 -6.5t-5 -5t-6.5 -3.5t-7.5 -1.5h-20v507q0 24 -16.5 41t-40.5 17h-689v26q0 10 6.5 17t16.5 7h743q3 0 6.5 -1t6 -2.5t4.5 -3.5t3.5 -4.5t2.5 -5.5t1 -7v-513zM981 91q0 -6 -3 -11.5t-8.5 -8.5t-11.5 -3h-17v513q0 24 -16.5 40.5t-40.5 16.5h-693v21
q0 9 7 16t17 7h743q6 0 11.5 -3t8.5 -8.5t3 -11.5v-568z" />
    <glyph glyph-name="uniE61E" unicode="&#xe61e;" 
d="M323 542h141v-176h-51v131h-188v-133h-51v178h92q9 22 15 41h-141v46h356v-46h-154q-5 -11 -9.5 -21t-9.5 -20v0zM295 465v11h52v-10q0 -46 -9 -77q47 -20 88 -38.5t75 -36.5l-29 -46q-67 38 -153 79q-40 -58 -149 -80q-8 14 -17 28t-20 28q94 10 128 41t34 101v0z
M885 433v-46h-51v-63q0 -13 -2 -22t-6 -15q-9 -10 -23 -14q-4 0 -9 -1t-12.5 -1t-16.5 -0.5t-19 -0.5q-1 6 -2 11.5t-2 11.5t-2.5 12.5t-3.5 13.5q22 -1 34 -1q18 0 18 19v50h-54v46h54v20l24 32h-68v27q-4 7 -13 21h-70v-40h67q-2 -141 -5 -170.5t-17 -40.5
q-4 -4 -11.5 -6.5t-18 -3.5t-23.5 -1q-3 15 -5.5 28t-5.5 24q4 0 7.5 -0.5t6.5 -0.5h6h4q12 0 15 11q1 5 2 33.5t2 80.5h-25q-3 -117 -47 -183q-6 17 -12.5 32t-12.5 27q13 22 19 48q3 13 5.5 26.5t3.5 27t2 41t1 67.5h-23v50h53l-11 21q-5 11 -12 24l44 18q6 -12 11.5 -22
t9.5 -18t6 -14l-19 -9h57q14 29 25 63l48 -10l-12 -34h89v-45h-110q-8 -15 -16 -29h112v-42l-37 -43v-10h51zM520 607l30 36q14 -11 27.5 -22t27.5 -22l-35 -39q-24 25 -50 47v0zM597 491l-35 -40q-10 10 -19 19.5t-17 18t-16 15.5l30 34q15 -11 29 -23l28 -24v0zM593 414
l-33 -144l-24 8q-12 4 -23 7q18 63 34 146l16 -6q8 -3 15.5 -6t14.5 -5v0zM251 115v-33h-51v-104h-36v104h-66q-3 -46 -17.5 -69t-43.5 -40q-14 12 -32 26q23 13 38.5 30.5t17.5 52.5h-56v33h58v62h-44v33h221v-33h-40v-62h51zM164 177h-65v-62h65v62zM506 10
q-10 -14 -21 -34q-10 6 -19 12.5t-17 14.5q-15 -16 -35 -29q-3 7 -7 13.5t-8 13.5v-25h-32v239h128v-18v-15q0 -6 -0.5 -10.5t-1.5 -7.5q-2 -12 -8.5 -19t-15.5 -8.5t-50 -1.5q0 5 -1 10.5t-2.5 10.5t-2.5 10q21 -1 32 -1l11 3q4 3 4 17h-61v-61h100v-29q-10 -36 -28 -65
q15 -12 35 -20zM399 94v-83q16 8 28 19q-5 8 -9.5 16t-8.5 16.5t-8 18.5l28 11q7 -21 19 -37q11 17 18 39h-67zM306 -23q-2 10 -4 18.5t-5 16.5q4 -1 8 -1h7q12 0 12 14v32h-22q-2 -56 -21 -84q-11 17 -23 29q9 20 12 45q1 8 1.5 20t1 27t0.5 34v86h81v-204
q0 -15 -7.5 -23.5t-40.5 -9.5v0zM324 182h-21v-32h21v32zM324 119h-21v-8v-9v-8v-7h21v32v0zM713 162q26 -35 45 -66l-27 -16q-2 4 -4.5 7.5t-4.5 7.5h-12v-73q0 -10 6 -10h3q3 0 4.5 1.5t2.5 4.5t2 11.5t2 23.5q5 -3 10 -5l10 -4l10 -4q-3 -39 -11.5 -50t-26.5 -11h-15
q-29 0 -29 33v81l-20 -2q0 -19 -2 -34t-5.5 -27t-9.5 -20q-15 -25 -37 -37q-3 4 -7 9l-8 8q-4 5 -9 10q-34 -4 -63 -8l-2 34q6 0 14 1t19 2t23.5 2.5t27.5 3.5q0 -10 -1 -21q14 10 21 28t8 46q-7 -1 -12.5 -2t-10.5 -2l-8 31q9 7 20 20.5t22 33.5h-42v29h55q-2 5 -4.5 10.5
t-4.5 10.5l37 7q7 -14 13 -28h62v-29h-80q-16 -26 -37 -51q33 1 69 4l-18 26zM572 148l11 20l26 -15q-27 -42 -50 -76l37 4q-2 -16 -2 -29q-41 -2 -68 -7l-8 28q7 8 16 19.5t19 26.5q-10 -1 -18 -1.5t-14 -1.5l-9 28q12 17 22.5 37.5t20.5 44.5l32 -13q-18 -35 -39 -65h24v0
zM950 114v-140h-37v140h-63v34h63v77h37v-77h64v-34h-64zM782 208l29 17q6 -9 12 -17t11 -15.5t9 -14.5l-31 -20q-13 23 -30 50v0zM826 40q11 7 36 23q2 -24 4 -37q-16 -11 -28 -19.5t-20 -15.5t-13 -12l-18 25q6 8 6 22v81h-25v33h58v-100z" />
    <glyph glyph-name="uniE61F" unicode="&#xe61f;" 
d="M652 461q-15 -1 -25.5 4t-14.5 14t-5 16t-1 18q0 57 41 57q16 0 27 -10t14.5 -19.5t3.5 -17.5v-5v-6q0 -2 -0.5 -7t-1 -8.5t-2 -8.5t-3.5 -8.5t-5 -7t-6.5 -6t-9 -4t-12.5 -1.5v0zM573 564q-39 5 -33 58q2 18 18.5 37t31.5 15q16 -4 27.5 -22t8.5 -35q-1 -10 -5.5 -19.5
t-11 -17.5t-16 -12.5t-20.5 -3.5v0zM573 496q6 -8 13 -16.5t14 -15.5t13.5 -14t12.5 -12t10.5 -9t7.5 -6l3 -2q1 -1 3 -3.5t7 -10t7.5 -16t1.5 -22t-7 -28.5t-19 -23t-27 -9t-27 0.5t-22 3.5l-8 3q-1 0 -3.5 0.5t-9.5 2t-14 2t-17.5 0t-20 -3t-20 -3.5t-18 -1.5t-13.5 -0.5
h-10l-3 1h-5q-2 0 -9.5 2.5t-14 7.5t-13.5 15.5t-10 24.5q-3 13 -1 24.5t6.5 20t11 16t12 12t10.5 8t5.5 4.5t9.5 8.5t20 19.5t18 25q10 16 27 25t39.5 2.5t39.5 -32.5v0zM508 471h-24v-35h-28q-3 0 -8 -1.5t-15 -10t-15 -22.5q-3 -19 5 -37q1 -2 3.5 -6t10.5 -9t18 -7h53
v128v0zM546 373v61l-25 -1v-67q0 -1 0.5 -2.5t1 -2.5t1 -2.5t2 -3.5t3.5 -3l4 -4q2 -1 5.5 -2.5t7.5 -2.5h60v90h-26v-68h-25l-8 5q-1 1 -1 3v0zM443 381q-2 8 2 20q3 11 16 15h23v-52h-21h-1h-2l-4 2q-1 0 -3 2l-4 2q-2 2 -3.5 5t-2.5 6v0zM477 568q-17 0 -28.5 17
t-11.5 41q0 12 3 22.5t8.5 18.5t13 12.5t15.5 4.5q17 0 28.5 -17t11.5 -41q0 -10 -2 -18.5t-5.5 -16t-8.5 -12.5t-11 -8t-13 -3zM402 486q-27 -6 -41 17t-10 43q0 1 0.5 3t1.5 7t2.5 9.5t4.5 10.5t6.5 10t9.5 7t12 4q18 2 32 -13t16 -30q6 -59 -34 -68v0zM338 -24
q-12 -16 -20.5 -27.5t-13.5 -19.5q-94 27 -132 98q-33 -62 -130 -102q-16 19 -37 43q52 16 85.5 39.5t46.5 53.5h-129v43h138q0 2 1 44h-121v43h72q-19 26 -33 42l38 27q13 -15 48 -54l-22 -15h58q13 18 24.5 35t20.5 34l49 -25l-37 -44h75v-43h-122v-18v-26h139v-43h-131
q32 -66 133 -85v0zM684 -25q-10 -27 -12 -40h-69q-77 0 -114 34q-14 -24 -35 -45q-17 15 -33 27q29 26 43 49q-14 24 -26 58h-25v-55q13 9 27 20q1 -19 4 -38q-30 -22 -55 -48l-22 29q4 5 6.5 13t2.5 19v60h-27v35h27v30h-7q-1 -2 -2.5 -4t-2.5 -3.5t-2 -3.5t-3 -4
q-2 15 -5 28.5t-6 25.5q21 42 34 99l40 -9q-5 -18 -10 -34h33v-35h-46q-3 -6 -5.5 -12.5t-5.5 -12.5h54v-35h-29v-30h37v-28l15 6q6 -21 15 -37q7 26 7 65h-39v34l34 71h-32v35h71v-36l-33 -70h34v-24q0 -63 -17 -108q8 -7 17.5 -12t21 -8.5t25 -5t28.5 -1.5h47q21 0 40 1v0
zM666 155v-50h-58v-17h60v-32h-60v-18h65v-31h-65v-28h-38v28h-48v31h48v18h-42v32h42v17h-40v31h40v19h-52v31h52v19h-39v30h39v24h38v-24h58v-49h13v-31h-13zM636 205h-28v-19h28v19zM636 155h-28v-19h28v19zM793 137v43h155v-43h-155zM744 171q-9 17 -19.5 33t-20.5 31
l40 24q24 -31 44 -62zM845 -3v-21h-44v139h136v-118h-92zM893 76h-48v-40h48v40zM1003 -48q-4 -7 -10 -12t-14 -7q-16 -3 -78 -5q-1 6 -2 12.5t-2.5 13t-2.5 12.5t-3 13q12 -1 22.5 -1.5t19.5 -0.5q19 0 26 8t7 22v195h-164v43h210v-251q0 -26 -9 -42v0zM738 -70l-26 34
q9 10 9 27v111h-27v44h72v-133l24 20q1 -15 2 -28t3 -24q-32 -27 -57 -51v0z" />
    <glyph glyph-name="uniE620" unicode="&#xe620;" 
d="M617 608q-24 0 -43.5 12t-31 32t-11.5 44t11.5 44t31 32t43 12t43 -12t31 -32t11.5 -44q0 -36 -25 -62t-60 -26zM617 749q-9 0 -16.5 -3t-14 -7.5t-11.5 -11t-7.5 -14.5t-2.5 -16.5t2.5 -17t7.5 -15t11.5 -11t14 -7.5t16.5 -3q21 0 36 15.5t15 37.5q0 14 -7 26.5
t-19 19.5t-25 7zM869 249q-36 0 -61 26t-25 62t25 62t60.5 26t60.5 -26t25 -62t-25 -62t-60 -26zM869 390q-22 0 -37 -15.5t-15 -37.5q0 -14 7 -26.5t19 -19.5t25.5 -7t25.5 7t19 19.5t7 26.5q0 22 -15 37.5t-36 15.5zM311 222q-24 0 -43.5 11.5t-31 32t-11.5 44.5
q0 36 25 61.5t61 25.5q14 0 27 -4t23.5 -12.5t18 -19t12 -24t4.5 -27.5q0 -37 -25 -62.5t-60 -25.5zM311 362q-22 0 -37 -15.5t-15 -36.5q0 -11 4 -21t11 -17t16.5 -11t20.5 -4q21 0 36 15.5t15 37.5q0 14 -7 26t-18.5 19t-25.5 7zM801 416l-132 195l28 20l132 -195z
M389 391l-29 20l165 217l28 -20zM234 402l-185 236l28 21l185 -237zM486 -65v28h-141q-3 -95 -54 -171q-17 22 -43 45q43 57 44 156v149h90q-6 17 -14 42l61 10q8 -28 14 -52h98v-207h-55zM486 89h-140v-74h140v74zM168 154l32 37q34 -24 70 -54l-35 -41q-29 27 -67 58v0z
M264 28l-35 -41q-27 26 -69 59l34 38q35 -25 70 -56v0zM264 -48q-30 -96 -45 -154q-28 11 -54 19q26 72 47 157q21 -11 52 -22v0zM971 -131q-14 -24 -31 -52q-28 16 -51 37.5t-41 47.5v-108h-54v112q-37 -52 -95 -94q-14 24 -31 48q59 33 103 83h-87v47h110v54h54v-54h114
v-47h-94q41 -49 103 -74v0zM833 73l33 34q51 -35 89 -65l-34 -38q-43 36 -88 69v0zM811 73q-49 -40 -90 -69l-33 39q47 28 87 64zM902 127h-161v-42h-52v89h265v-89h-52v42zM577 157l33 36q38 -24 75 -52l-35 -41q-10 9 -21.5 18t-24.5 19t-27 20v0zM677 30l-38 -43
q-26 27 -68 60l35 38q39 -28 71 -55v0zM676 -51q-29 -90 -47 -155q-29 11 -55 19q24 63 49 157q25 -12 53 -21v0z" />
    <glyph glyph-name="uniE621" unicode="&#xe621;" 
d="M626 611q-37 0 -63.5 26t-26.5 63q0 24 12 45t33 32.5t45 11.5q38 0 64.5 -26t26.5 -63q0 -14 -4.5 -28t-13 -24.5t-19.5 -19t-25 -13t-29 -4.5zM626 754q-22 0 -38 -16t-16 -38q0 -14 7.5 -26.5t20 -19.5t26.5 -7q23 0 39 15.5t16 37.5q0 11 -4.5 21t-11.5 17
t-17.5 11.5t-21.5 4.5zM892 246q-24 0 -45 12t-33 32.5t-12 44.5q0 37 26.5 63.5t64 26.5t64 -26.5t26.5 -63.5q0 -12 -3.5 -23.5t-9.5 -21t-14 -18t-18 -14t-21.5 -9t-24.5 -3.5zM892 389q-22 0 -38 -15.5t-16 -38t16 -38t38.5 -15.5t38.5 15.5t16 37.5q0 15 -7.5 27.5
t-20 19.5t-27.5 7zM304 218q-25 0 -45.5 12t-33 32.5t-12.5 45.5q0 36 26.5 62.5t64.5 26.5q14 0 28 -4.5t25 -13t19.5 -19.5t13 -24.5t4.5 -27.5q0 -37 -26.5 -63.5t-63.5 -26.5zM304 361q-15 0 -27.5 -7t-20 -19.5t-7.5 -26.5q0 -11 4.5 -21t12 -17.5t17.5 -11.5t21 -4
q22 0 38 15.5t16 38t-16 38t-38 15.5zM821 416l-139 198l30 20l139 -198zM386 391l-30 20l174 220l30 -20zM223 401l-195 241l29 20l195 -240zM567 -31q-15 -23 -29 -53q-30 19 -53 42v-81h-147v-18q0 -10 4.5 -15t14.5 -5h114q16 0 21.5 10.5t6.5 58.5q30 -15 55 -23
q-6 -59 -23 -77.5t-56 -18.5h-135q-56 0 -56 55v79q-4 -3 -8 -6.5t-9 -6.5q-18 29 -34 50q47 29 77 66h-61v44h63v37h-47v43h47v39h54v-39h64v39h54v-39h51v-43h-51v-37h73v-44h-68q7 -8 16 -15.5t18.5 -15t20.5 -14t23 -12.5v0zM338 -81h94v33h-94v-33zM430 107h-64v-37h64
v37zM433 26h-63q-8 -16 -19 -32h103q-11 15 -21 32v0zM156 153l36 35q36 -25 65 -49l-40 -41q-10 9 -19.5 18t-20 18.5t-21.5 18.5v0zM247 28l-38 -43q-14 13 -64 57l36 38q32 -23 66 -52v0zM247 -64q-16 -62 -36 -151q-5 1 -9 3l-10 2q-4 2 -9 3.5t-9.5 3t-9 2.5t-9.5 3
q15 45 37 154q10 -4 19 -7.5t18 -6.5l18 -6v0zM990 40h-45q-41 0 -41 44v40h-62q0 -39 -10 -61.5t-33 -38.5q-5 4 -9.5 8t-9.5 8l-12 10l-10 8q24 15 28.5 37t5.5 80h162v-66q0 -18 21 -18h25zM776 -60l41 26q24 -33 57 -62q30 27 47 64h-159v51h219v-50q-22 -52 -64 -97
q37 -22 82 -35q-7 -10 -12 -19t-10 -17.5t-8 -15.5q-44 13 -94 50q-42 -30 -96 -52q-11 17 -34 51v-4q0 -2 -1 -4v-4l-2 -4q0 -2 -1 -4l-2 -2l-2 -4l-2 -2q-4 -5 -10.5 -8.5t-15.5 -4.5q-18 -3 -51 -5q-2 22 -16 57q7 -2 14 -2.5t13 -0.5q24 0 24 24v47h-43q-3 -74 -34 -131
q-3 4 -6.5 8.5t-6.5 9t-6.5 8.5t-6.5 8t-6.5 7.5t-6.5 7.5q8 17 13 37.5t7 42.5q4 46 4 125v139h145v-340q44 11 86 37q-34 32 -56 68v0zM693 122h-41v-56h41v56zM693 17h-41v-13v-18v-24h41v55z" />
    <glyph glyph-name="uniE622" unicode="&#xe622;" 
d="M591 609q-35 0 -60.5 25.5t-25.5 62.5q0 23 11.5 43.5t31.5 32t43 11.5q35 0 60 -25.5t25 -62t-25 -62t-60 -25.5zM591 749q-8 0 -16 -2.5t-14.5 -7.5t-11 -11.5t-7 -14.5t-2.5 -16q0 -22 15 -37.5t36 -15.5q14 0 25.5 7t18.5 19t7 27q0 21 -15 36.5t-36 15.5zM843 251
q-35 0 -60.5 25.5t-25.5 61.5q0 18 7 34.5t18.5 28t27.5 18.5t33 7q35 0 60 -25.5t25 -62.5q0 -17 -6.5 -33.5t-18 -28t-27.5 -18.5t-33 -7zM843 391q-21 0 -36 -15.5t-15 -37.5q0 -14 6.5 -26t18.5 -19t26 -7q10 0 19.5 4t16.5 11t11 17t4 20q0 22 -15 37.5t-36 15.5z
M285 223q-35 0 -60.5 26t-25.5 62t25.5 62t60.5 26t60 -26t25 -62t-25 -62t-60 -26zM285 364q-11 0 -20.5 -4.5t-16 -11.5t-10.5 -16.5t-4 -20.5q0 -22 15 -37t36 -15t36 15t15 37t-15 37.5t-36 15.5zM776 417l-132 195l28 20l132 -195zM363 393l-28 19l164 217l29 -20z
M208 403l-185 236l28 21l185 -236zM139 18h167v23h-134v44h134v23h-158v44h90q-9 20 -18 35l57 12q13 -21 27 -47h61q5 7 10.5 14.5t10.5 15.5t11 17l60 -12l-30 -35h97v-44h-161v-23h139v-44h-139v-23h168v-45h-392v45zM282 -98h-137v44h156q2 11 4 23h58q-2 -12 -4 -23
h168v-44h-143q43 -44 149 -51q-4 -7 -11 -21.5t-16 -35.5q-118 12 -172 87q-43 -72 -179 -86q-3 10 -8 22.5t-12 29.5q111 11 147 55v0zM935 48h-43q-38 0 -38 44v38h-59q0 -37 -9 -59q-5 -11 -13 -20.5t-19 -18.5q-17 16 -39 34q23 15 27.5 36.5t4.5 78.5h155v-64
q0 -19 19 -19h24zM732 -50l39 26q12 -16 25.5 -31.5t29.5 -29.5q14 13 25 29t19 33h-151v51h208v-49q-21 -52 -61 -95q36 -22 78 -34q-18 -30 -29 -52q-41 13 -89 50q-19 -15 -42 -28t-49 -24q-10 18 -31 50q-2 -18 -10 -27q-4 -5 -10.5 -8.5t-14.5 -4.5q-4 -1 -9 -1.5
t-11 -1t-13 -1t-15 -1.5q-3 21 -15 56q13 -3 26 -3q22 0 22 24v45h-41q-3 -72 -32 -128q-19 27 -37 48q15 34 19 79q1 9 1.5 19.5t1 22t0.5 24.5t0.5 27t0.5 29v137h137v-334q42 11 81 36q-32 32 -53 67v0zM654 129h-39v-55h39v55zM654 26h-39v-54h39v54z" />
    <glyph glyph-name="uniE623" unicode="&#xe623;" 
d="M719 151q91 111 91 256q0 110 -54 203.5t-147.5 147.5t-203.5 54q-82 0 -157 -32t-129.5 -86.5t-86.5 -129.5t-32 -157q0 -110 54 -203.5t147.5 -147.5t203.5 -54q142 0 253 89l303 -303l61 60zM404 88q-87 0 -161 43t-117 116.5t-43 160.5t43 161t117 117t161 43
q65 0 124 -25.5t102 -68.5t68.5 -102t25.5 -125q0 -132 -93 -225.5t-225 -94.5h-2z" />
    <glyph glyph-name="uniE624" unicode="&#xe624;" 
d="M814 628q-1 6 -6 9.5t-11 2.5q-4 0 -7 -3t-4 -6.5t-1 -7.5l18 -102q-51 56 -119 86.5t-144 30.5q-97 0 -179 -48t-129.5 -130t-47.5 -178.5t47.5 -178.5t129.5 -129.5t179 -47.5q75 0 144.5 30.5t120.5 87.5q4 4 3.5 10.5t-5.5 10.5q-11 10 -21 -1q-30 -35 -69 -59
t-83 -37t-90 -13q-89 0 -164 44t-119 119t-44 164q0 66 26 126.5t70 104t104 69.5t127 26q71 0 134.5 -29t109.5 -82l-106 7q-6 0 -10.5 -4t-5 -10t3.5 -11t10 -5l148 -10h1q2 0 4 1l4 2q2 1 3.5 2.5t2.5 3.5t1 5v4z" />
  </font>
</defs>
</svg>
